HD Film indir En İyi Torrent Film İzle Diziler Ücretsiz Film indirme Sitesi
Konuyu Oyla:
  • Derecelendirme: 0/5 - 0 oy
  • 1
  • 2
  • 3
  • 4
  • 5
Sniper Duvar İndir - İzle Full Türkçe The Wall 2017 1080p BluRay x264
Torrent Abi
Video 
sniper-duvar-1495020700.jpg
Irak'ta savaşmakta olan iki Amerikan askeri, keskin nişancı Matthews (John Cena) ve yardımcısı Isaac (Aaron Taylor-Johnson), çölün ortasında terkedilmiş gibi görünen bir bölgedeki boru hattı inşaatında öldürülen Amerikalılar'la ilgili araştırma yapmaktadır. 22 saat sabırla gizlendikten sonra tehlike olmadığına ikna olarak saklandığı yerden çıkan Matthews, cesetlere yaklaşınca başka bir keskin nişancının yaylım ateşine maruz kalır ve yaralanır, Isaac de yaralanmasına rağmen kendini son derece dayanıksız bir duvarın arkasına güç bela atar. Telsizle yardım isteyen Isaac, Iraklı keskin nişancıda da telsiz olduğunu ve konuşmalarını dinlediğini farkeder. Isaac ve Matthews, gerçek bir kedi-fare 

Vizyon Tarihi:16 Haziran 2017

Yapımı:2017 - ABD

Tür:Dram ,  Gerilim ,  Savaş

Süre:81 Dak.

Yönetmen:Doug Liman

Oyuncular:Aaron Taylor-Johnson ,  John Cena ,  Laith Nakli

Senaryo:Dwain Worrell


Video

ID                                       : 1

Format                                   : AVC

Format/Info                              : Advanced Video Codec

Format profile                           : [email protected]

Format settings, CABAC                   : Yes

Format settings, ReFrames                : 5 frames

Codec ID                                 : V_MPEG4/ISO/AVC

Duration                                 : 1h 29mn

Bit rate                                 : 8 933 Kbps

Width                                    : 1 920 pixels

Height                                   : 800 pixels

Display aspect ratio                     : 2.40:1

Frame rate mode                          : Constant

Frame rate                               : 23.976 fps

Color space                              : YUV

Chroma subsampling                       : 4:2:0

Bit depth                                : 8 bits

Scan type                                : Progressive

Bits/(Pixel*Frame)                       : 0.243

Stream size                              : 5.61 GiB (86%)

Writing library                          : x264 core 150 r2833 df79067

Language                                 : English

Default                                  : Yes

Forced                                   : No



Audio

ID                                       : 2

Format                                   : DTS

Format/Info                              : Digital Theater Systems

Mode                                     : 16

Format settings, Endianness              : Big

Codec ID                                 : A_DTS

Duration                                 : 1h 29mn

Bit rate mode                            : Constant

Bit rate                                 : 1 509 Kbps

Channel(s)                               : 6 channels

Channel positions                        : Front: L C R, Side: L R, LFE

Sampling rate                            : 48.0 KHz

Frame rate                               : 93.750 fps (512 spf)

Bit depth                                : 24 bits

Compression mode                         : Lossy

Stream size                              : 970 MiB (14%)

Language                                 : English

Default                                  : Yes

Forced                                   : No


Ek Dosyalar
.torrent   The.Wall.2017.1080p.BluRay.x264-DRONES-[torrentabi.com].torrent (Dosya Boyutu: 132.31 KB / İndirme Sayısı: 33)
Ara
Cevapla


Hızlı Menü:


Konuyu Okuyanlar: 1 Ziyaretçi